999
dxfrw 0.5.11
0
SECTION
2
HEADER
9
$ACADVER
1
AC1021
9
$HANDSEED
5
20000
9
$DWGCODEPAGE
3
ANSI_1252
9
$INSBASE
10
0
20
0
30
0
9
$EXTMIN
10
-5.625
20
-1.25
30
0
9
$EXTMAX
10
181.25
20
109.625
30
0
9
$LIMMIN
10
0
20
0
9
$LIMMAX
10
420
20
297
9
$ORTHOMODE
70
0
9
$LTSCALE
40
1
9
$TEXTSTYLE
7
STANDARD
9
$CLAYER
8
Crosshairs
9
$DIMASZ
40
2.5
9
$DIMLFAC
40
1
9
$DIMSCALE
40
1
9
$DIMEXO
40
0.625
9
$DIMEXE
40
1.25
9
$DIMTXT
40
5
9
$DIMTSZ
40
0
9
$DIMAUNIT
70
0
9
$DIMADEC
70
2
9
$DIMLUNIT
70
2
9
$DIMSTYLE
2
STANDARD
9
$DIMGAP
40
0.625
9
$DIMTIH
70
0
9
$LUNITS
70
2
9
$LUPREC
70
2
9
$AUNITS
70
0
9
$AUPREC
70
2
9
$SPLINESEGS
70
8
9
$GRIDMODE
70
1
9
$SNAPSTYLE
70
0
9
$GRIDUNIT
10
0
20
0
9
$PINSBASE
10
0
20
0
30
0
9
$PLIMMIN
10
0
20
0
9
$PLIMMAX
10
297
20
210
9
$INSUNITS
70
4
9
$PSVPSCALE
40
1
0
ENDSEC
0
SECTION
2
CLASSES
0
ENDSEC
0
SECTION
2
TABLES
0
TABLE
2
VPORT
5
8
330
0
100
AcDbSymbolTable
70
1
0
VPORT
5
31
330
2
100
AcDbSymbolTableRecord
100
AcDbViewportTableRecord
2
*ACTIVE
70
0
10
0
20
0
11
1
21
1
12
48.57856
22
54.39488
13
0
23
0
14
10
24
10
15
10
25
10
16
0
26
0
36
1
17
0
27
0
37
0
40
48.41472
41
1.84602368866
42
50
43
0
44
0
50
0
51
0
71
0
72
100
73
1
74
3
75
0
76
1
77
0
78
0
281
0
65
1
110
0
120
0
130
0
111
1
121
0
131
0
112
0
122
1
132
0
79
0
146
0
348
10020
60
7
61
5
292
1
282
1
141
0
142
0
63
250
421
3358443
0
ENDTAB
0
TABLE
2
LTYPE
5
5
330
0
100
AcDbSymbolTable
70
4
0
LTYPE
5
14
330
5
100
AcDbSymbolTableRecord
100
AcDbLinetypeTableRecord
2
ByBlock
70
0
3

72
65
73
0
40
0
0
LTYPE
5
15
330
5
100
AcDbSymbolTableRecord
100
AcDbLinetypeTableRecord
2
ByLayer
70
0
3

72
65
73
0
40
0
0
LTYPE
5
16
330
5
100
AcDbSymbolTableRecord
100
AcDbLinetypeTableRecord
2
Continuous
70
0
3
Solid line
72
65
73
0
40
0
0
LTYPE
5
32
330
5
100
AcDbSymbolTableRecord
100
AcDbLinetypeTableRecord
2
DOT
70
0
3
Dot . . . . . . . . . . . . . . . . . . . . . .
72
65
73
2
40
6.35
49
0
74
0
49
-6.35
74
0
0
LTYPE
5
33
330
5
100
AcDbSymbolTableRecord
100
AcDbLinetypeTableRecord
2
DOT2
70
0
3
Dot (.5x) .....................................
72
65
73
2
40
3.175
49
0
74
0
49
-3.175
74
0
0
LTYPE
5
34
330
5
100
AcDbSymbolTableRecord
100
AcDbLinetypeTableRecord
2
DOTX2
70
0
3
Dot (2x) .  .  .  .  .  .  .  .  .  .  .  .  .
72
65
73
2
40
12.7
49
0
74
0
49
-12.7
74
0
0
LTYPE
5
35
330
5
100
AcDbSymbolTableRecord
100
AcDbLinetypeTableRecord
2
DASHED
70
0
3
Dot . . . . . . . . . . . . . . . . . . . . . .
72
65
73
2
40
19.05
49
12.7
74
0
49
-6.35
74
0
0
LTYPE
5
36
330
5
100
AcDbSymbolTableRecord
100
AcDbLinetypeTableRecord
2
DASHED2
70
0
3
Dashed (.5x) _ _ _ _ _ _ _ _ _ _ _ _ _ _ _ _ _
72
65
73
2
40
9.525
49
6.35
74
0
49
-3.175
74
0
0
LTYPE
5
37
330
5
100
AcDbSymbolTableRecord
100
AcDbLinetypeTableRecord
2
DASHEDX2
70
0
3
Dashed (2x) ____  ____  ____  ____  ____  ___
72
65
73
2
40
38.1
49
25.4
74
0
49
-12.7
74
0
0
LTYPE
5
38
330
5
100
AcDbSymbolTableRecord
100
AcDbLinetypeTableRecord
2
DASHDOT
70
0
3
Dash dot __ . __ . __ . __ . __ . __ . __ . __
72
65
73
4
40
25.4
49
12.7
74
0
49
-6.35
74
0
49
0
74
0
49
-6.35
74
0
0
LTYPE
5
39
330
5
100
AcDbSymbolTableRecord
100
AcDbLinetypeTableRecord
2
DASHDOT2
70
0
3
Dash dot (.5x) _._._._._._._._._._._._._._._.
72
65
73
4
40
12.7
49
6.35
74
0
49
-3.175
74
0
49
0
74
0
49
-3.175
74
0
0
LTYPE
5
3A
330
5
100
AcDbSymbolTableRecord
100
AcDbLinetypeTableRecord
2
DASHDOTX2
70
0
3
Dash dot (2x) ____  .  ____  .  ____  .  ___
72
65
73
4
40
50.8
49
25.4
74
0
49
-12.7
74
0
49
0
74
0
49
-12.7
74
0
0
LTYPE
5
3B
330
5
100
AcDbSymbolTableRecord
100
AcDbLinetypeTableRecord
2
DIVIDE
70
0
3
Divide ____ . . ____ . . ____ . . ____ . . ____
72
65
73
6
40
31.75
49
12.7
74
0
49
-6.35
74
0
49
0
74
0
49
-6.35
74
0
49
0
74
0
49
-6.35
74
0
0
LTYPE
5
3C
330
5
100
AcDbSymbolTableRecord
100
AcDbLinetypeTableRecord
2
DIVIDE2
70
0
3
Divide (.5x) __..__..__..__..__..__..__..__.._
72
65
73
6
40
15.875
49
6.35
74
0
49
-3.175
74
0
49
0
74
0
49
-3.175
74
0
49
0
74
0
49
-3.175
74
0
0
LTYPE
5
3D
330
5
100
AcDbSymbolTableRecord
100
AcDbLinetypeTableRecord
2
DIVIDEX2
70
0
3
Divide (2x) ________  .  .  ________  .  .  _
72
65
73
6
40
63.5
49
25.4
74
0
49
-12.7
74
0
49
0
74
0
49
-12.7
74
0
49
0
74
0
49
-12.7
74
0
0
LTYPE
5
3E
330
5
100
AcDbSymbolTableRecord
100
AcDbLinetypeTableRecord
2
BORDER
70
0
3
Border __ __ . __ __ . __ __ . __ __ . __ __ .
72
65
73
6
40
44.45
49
12.7
74
0
49
-6.35
74
0
49
12.7
74
0
49
-6.35
74
0
49
0
74
0
49
-6.35
74
0
0
LTYPE
5
3F
330
5
100
AcDbSymbolTableRecord
100
AcDbLinetypeTableRecord
2
BORDER2
70
0
3
Border (.5x) __.__.__.__.__.__.__.__.__.__.__.
72
65
73
6
40
22.225
49
6.35
74
0
49
-3.175
74
0
49
6.35
74
0
49
-3.175
74
0
49
0
74
0
49
-3.175
74
0
0
LTYPE
5
40
330
5
100
AcDbSymbolTableRecord
100
AcDbLinetypeTableRecord
2
BORDERX2
70
0
3
Border (2x) ____  ____  .  ____  ____  .  ___
72
65
73
6
40
88.9
49
25.4
74
0
49
-12.7
74
0
49
25.4
74
0
49
-12.7
74
0
49
0
74
0
49
-12.7
74
0
0
LTYPE
5
41
330
5
100
AcDbSymbolTableRecord
100
AcDbLinetypeTableRecord
2
CENTER
70
0
3
Center ____ _ ____ _ ____ _ ____ _ ____ _ ____
72
65
73
4
40
50.8
49
31.75
74
0
49
-6.35
74
0
49
6.35
74
0
49
-6.35
74
0
0
LTYPE
5
42
330
5
100
AcDbSymbolTableRecord
100
AcDbLinetypeTableRecord
2
CENTER2
70
0
3
Center (.5x) ___ _ ___ _ ___ _ ___ _ ___ _ ___
72
65
73
4
40
28.575
49
19.05
74
0
49
-3.175
74
0
49
3.175
74
0
49
-3.175
74
0
0
LTYPE
5
43
330
5
100
AcDbSymbolTableRecord
100
AcDbLinetypeTableRecord
2
CENTERX2
70
0
3
Center (2x) ________  __  ________  __  _____
72
65
73
4
40
101.6
49
63.5
74
0
49
-12.7
74
0
49
12.7
74
0
49
-12.7
74
0
0
ENDTAB
0
TABLE
2
LAYER
5
2
330
0
100
AcDbSymbolTable
70
1
0
LAYER
5
10
330
2
100
AcDbSymbolTableRecord
100
AcDbLayerTableRecord
2
0
70
0
62
7
6
CONTINUOUS
370
0
390
F
0
LAYER
5
44
330
2
100
AcDbSymbolTableRecord
100
AcDbLayerTableRecord
2
Crosshairs
70
0
62
1
6
DASHED
370
0
390
F
0
LAYER
5
45
330
2
100
AcDbSymbolTableRecord
100
AcDbLayerTableRecord
2
Dimensioning
70
0
62
6
6
CONTINUOUS
370
0
390
F
0
ENDTAB
0
TABLE
2
STYLE
5
3
330
0
100
AcDbSymbolTable
70
3
0
STYLE
5
46
330
2
100
AcDbSymbolTableRecord
100
AcDbTextStyleTableRecord
2
Standard
70
0
40
0
41
1
50
0
71
0
42
1
3
txt
4

0
ENDTAB
0
TABLE
2
VIEW
5
6
330
0
100
AcDbSymbolTable
70
0
0
ENDTAB
0
TABLE
2
UCS
5
7
330
0
100
AcDbSymbolTable
70
0
0
ENDTAB
0
TABLE
2
APPID
5
9
330
0
100
AcDbSymbolTable
70
1
0
APPID
5
12
330
9
100
AcDbSymbolTableRecord
100
AcDbRegAppTableRecord
2
ACAD
70
0
0
ENDTAB
0
TABLE
2
DIMSTYLE
5
A
330
0
100
AcDbSymbolTable
70
1
100
AcDbDimStyleTable
71
1
0
DIMSTYLE
105
47
330
A
100
AcDbSymbolTableRecord
100
AcDbDimStyleTableRecord
2
Standard
70
0
40
1
41
2.5
42
0.625
43
0.38
44
1.25
45
0
46
0
47
0
48
0
140
5
141
0.09
142
0
143
25.4
144
1
145
0
146
1
147
0.625
148
0
71
0
72
0
73
0
74
1
75
0
76
0
77
0
78
0
79
0
170
0
171
2
172
0
173
0
174
0
175
0
176
0
177
0
178
0
179
0
271
4
272
4
273
2
274
2
275
0
276
0
277
2
278
46
279
0
280
0
281
0
282
0
283
1
284
0
285
0
286
0
288
0
289
3
340
Standard
341

371
-2
372
-2
0
ENDTAB
0
TABLE
2
BLOCK_RECORD
5
1
330
0
100
AcDbSymbolTable
70
2
0
BLOCK_RECORD
5
1F
330
1
100
AcDbSymbolTableRecord
100
AcDbBlockTableRecord
2
*Model_Space
70
0
280
1
281
0
0
BLOCK_RECORD
5
1E
330
1
100
AcDbSymbolTableRecord
100
AcDbBlockTableRecord
2
*Paper_Space
70
0
280
1
281
0
0
BLOCK_RECORD
5
48
330
1
100
AcDbSymbolTableRecord
100
AcDbBlockTableRecord
2
*D7
70
0
280
1
281
0
0
BLOCK_RECORD
5
4B
330
1
100
AcDbSymbolTableRecord
100
AcDbBlockTableRecord
2
*D1
70
0
280
1
281
0
0
BLOCK_RECORD
5
4E
330
1
100
AcDbSymbolTableRecord
100
AcDbBlockTableRecord
2
*D4
70
0
280
1
281
0
0
BLOCK_RECORD
5
51
330
1
100
AcDbSymbolTableRecord
100
AcDbBlockTableRecord
2
*D6
70
0
280
1
281
0
0
BLOCK_RECORD
5
54
330
1
100
AcDbSymbolTableRecord
100
AcDbBlockTableRecord
2
*D8
70
0
280
1
281
0
0
BLOCK_RECORD
5
57
330
1
100
AcDbSymbolTableRecord
100
AcDbBlockTableRecord
2
*D3
70
0
280
1
281
0
0
BLOCK_RECORD
5
5A
330
1
100
AcDbSymbolTableRecord
100
AcDbBlockTableRecord
2
*D5
70
0
280
1
281
0
0
BLOCK_RECORD
5
5D
330
1
100
AcDbSymbolTableRecord
100
AcDbBlockTableRecord
2
*D10
70
0
280
1
281
0
0
BLOCK_RECORD
5
60
330
1
100
AcDbSymbolTableRecord
100
AcDbBlockTableRecord
2
*D2
70
0
280
1
281
0
0
BLOCK_RECORD
5
63
330
1
100
AcDbSymbolTableRecord
100
AcDbBlockTableRecord
2
*D9
70
0
280
1
281
0
0
ENDTAB
0
ENDSEC
0
SECTION
2
BLOCKS
0
BLOCK
5
20
330
1F
100
AcDbEntity
8
0
100
AcDbBlockBegin
2
*Model_Space
70
0
10
0
20
0
30
0
3
*Model_Space
1

0
ENDBLK
5
21
330
1F
100
AcDbEntity
8
0
100
AcDbBlockEnd
0
BLOCK
5
1C
330
1B
100
AcDbEntity
8
0
100
AcDbBlockBegin
2
*Paper_Space
70
0
10
0
20
0
30
0
3
*Paper_Space
1

0
ENDBLK
5
1D
330
1F
100
AcDbEntity
8
0
100
AcDbBlockEnd
0
BLOCK
5
49
330
48
100
AcDbEntity
8
0
100
AcDbBlockBegin
2
*D7
70
1
10
0
20
0
3
*D7
1

0
LINE
5
66
100
AcDbEntity
8
Dimensioning
6
CONTINUOUS
62
7
370
0
100
AcDbLine
10
9.375
20
76
11
-1.25
21
76
0
LINE
5
67
100
AcDbEntity
8
Dimensioning
6
CONTINUOUS
62
7
370
0
100
AcDbLine
10
9.375
20
70
11
-1.25
21
70
0
LINE
5
68
100
AcDbEntity
8
Dimensioning
6
CONTINUOUS
62
7
370
0
100
AcDbLine
10
3.06151588456e-016
20
81
11
-3.06151588456e-016
21
65
0
SOLID
5
69
100
AcDbEntity
8
Dimensioning
6
CONTINUOUS
62
7
370
0
100
AcDbTrace
10
0
20
76
30
0
11
-0.416284657773
21
78.5
31
0
12
0.416284657773
22
78.5
32
0
13
0.416284657773
23
78.5
33
0
0
SOLID
5
6A
100
AcDbEntity
8
Dimensioning
6
CONTINUOUS
62
7
370
0
100
AcDbTrace
10
0
20
70
30
0
11
0.416284657773
21
67.5
31
0
12
-0.416284657773
22
67.5
32
0
13
-0.416284657773
23
67.5
33
0
0
MTEXT
5
6B
100
AcDbEntity
8
Dimensioning
6
CONTINUOUS
62
7
370
0
100
AcDbMText
10
-3.125
20
73
30
0
40
5
41
2.22222222222
71
5
72
1
1
6
7
standard
210
0
220
0
230
1
50
90
73
2
44
1
0
ENDBLK
5
4A
330
48
100
AcDbEntity
8
0
100
AcDbBlockEnd
0
BLOCK
5
4C
330
4B
100
AcDbEntity
8
0
100
AcDbBlockBegin
2
*D1
70
1
10
0
20
0
3
*D1
1

0
LINE
5
6C
100
AcDbEntity
8
Dimensioning
6
CONTINUOUS
62
7
370
0
100
AcDbLine
10
70.625
20
50
11
91.25
21
50
0
LINE
5
6D
100
AcDbEntity
8
Dimensioning
6
CONTINUOUS
62
7
370
0
100
AcDbLine
10
70.625
20
10
11
91.25
21
10
0
LINE
5
6E
100
AcDbEntity
8
Dimensioning
6
CONTINUOUS
62
7
370
0
100
AcDbLine
10
90
20
50
11
90
21
10
0
SOLID
5
6F
100
AcDbEntity
8
Dimensioning
6
CONTINUOUS
62
7
370
0
100
AcDbTrace
10
90
20
50
30
0
11
90.4162846578
21
47.5
31
0
12
89.5837153422
22
47.5
32
0
13
89.5837153422
23
47.5
33
0
0
SOLID
5
70
100
AcDbEntity
8
Dimensioning
6
CONTINUOUS
62
7
370
0
100
AcDbTrace
10
90
20
10
30
0
11
89.5837153422
21
12.5
31
0
12
90.4162846578
22
12.5
32
0
13
90.4162846578
23
12.5
33
0
0
MTEXT
5
71
100
AcDbEntity
8
Dimensioning
6
CONTINUOUS
62
7
370
0
100
AcDbMText
10
86.875
20
30
30
0
40
5
41
6.66666666667
71
5
72
1
1
40
7
standard
210
0
220
0
230
1
50
90
73
2
44
1
0
ENDBLK
5
4D
330
4B
100
AcDbEntity
8
0
100
AcDbBlockEnd
0
BLOCK
5
4F
330
4E
100
AcDbEntity
8
0
100
AcDbBlockBegin
2
*D4
70
1
10
0
20
0
3
*D4
1

0
LINE
5
72
100
AcDbEntity
8
Dimensioning
6
CONTINUOUS
62
7
370
0
100
AcDbLine
10
120
20
89.375
11
120
21
58.75
0
LINE
5
73
100
AcDbEntity
8
Dimensioning
6
CONTINUOUS
62
7
370
0
100
AcDbLine
10
140
20
89.375
11
140
21
58.75
0
LINE
5
74
100
AcDbEntity
8
Dimensioning
6
CONTINUOUS
62
7
370
0
100
AcDbLine
10
120
20
60
11
140
21
60
0
SOLID
5
75
100
AcDbEntity
8
Dimensioning
6
CONTINUOUS
62
7
370
0
100
AcDbTrace
10
120
20
60
30
0
11
122.5
21
60.4162846578
31
0
12
122.5
22
59.5837153422
32
0
13
122.5
23
59.5837153422
33
0
0
SOLID
5
76
100
AcDbEntity
8
Dimensioning
6
CONTINUOUS
62
7
370
0
100
AcDbTrace
10
140
20
60
30
0
11
137.5
21
59.5837153422
31
0
12
137.5
22
60.4162846578
32
0
13
137.5
23
60.4162846578
33
0
0
MTEXT
5
77
100
AcDbEntity
8
Dimensioning
6
CONTINUOUS
62
7
370
0
100
AcDbMText
10
130
20
63.125
30
0
40
5
41
6.11111111111
71
5
72
1
1
20
7
standard
210
0
220
0
230
1
50
0
73
2
44
1
0
ENDBLK
5
50
330
4E
100
AcDbEntity
8
0
100
AcDbBlockEnd
0
BLOCK
5
52
330
51
100
AcDbEntity
8
0
100
AcDbBlockBegin
2
*D6
70
1
10
0
20
0
3
*D6
1

0
LINE
5
78
100
AcDbEntity
8
Dimensioning
6
CONTINUOUS
62
7
370
0
100
AcDbLine
10
10
20
9.375
11
10
21
-1.25
0
LINE
5
79
100
AcDbEntity
8
Dimensioning
6
CONTINUOUS
62
7
370
0
100
AcDbLine
10
70
20
9.375
11
70
21
-1.25
0
LINE
5
7A
100
AcDbEntity
8
Dimensioning
6
CONTINUOUS
62
7
370
0
100
AcDbLine
10
10
20
0
11
70
21
0
0
SOLID
5
7B
100
AcDbEntity
8
Dimensioning
6
CONTINUOUS
62
7
370
0
100
AcDbTrace
10
10
20
0
30
0
11
12.5
21
0.416284657773
31
0
12
12.5
22
-0.416284657773
32
0
13
12.5
23
-0.416284657773
33
0
0
SOLID
5
7C
100
AcDbEntity
8
Dimensioning
6
CONTINUOUS
62
7
370
0
100
AcDbTrace
10
70
20
0
30
0
11
67.5
21
-0.416284657773
31
0
12
67.5
22
0.416284657773
32
0
13
67.5
23
0.416284657773
33
0
0
MTEXT
5
7D
100
AcDbEntity
8
Dimensioning
6
CONTINUOUS
62
7
370
0
100
AcDbMText
10
40
20
3.125
30
0
40
5
41
6.11111111111
71
5
72
1
1
60
7
standard
210
0
220
0
230
1
50
0
73
2
44
1
0
ENDBLK
5
53
330
51
100
AcDbEntity
8
0
100
AcDbBlockEnd
0
BLOCK
5
55
330
54
100
AcDbEntity
8
0
100
AcDbBlockBegin
2
*D8
70
1
10
0
20
0
3
*D8
1

0
LINE
5
7E
100
AcDbEntity
8
Dimensioning
6
CONTINUOUS
62
7
370
0
100
AcDbLine
10
28
20
69.375
11
28
21
58.75
0
LINE
5
7F
100
AcDbEntity
8
Dimensioning
6
CONTINUOUS
62
7
370
0
100
AcDbLine
10
52
20
69.375
11
52
21
58.75
0
LINE
5
80
100
AcDbEntity
8
Dimensioning
6
CONTINUOUS
62
7
370
0
100
AcDbLine
10
28
20
60
11
52
21
60
0
SOLID
5
81
100
AcDbEntity
8
Dimensioning
6
CONTINUOUS
62
7
370
0
100
AcDbTrace
10
28
20
60
30
0
11
30.5
21
60.4162846578
31
0
12
30.5
22
59.5837153422
32
0
13
30.5
23
59.5837153422
33
0
0
SOLID
5
82
100
AcDbEntity
8
Dimensioning
6
CONTINUOUS
62
7
370
0
100
AcDbTrace
10
52
20
60
30
0
11
49.5
21
59.5837153422
31
0
12
49.5
22
60.4162846578
32
0
13
49.5
23
60.4162846578
33
0
0
MTEXT
5
83
100
AcDbEntity
8
Dimensioning
6
CONTINUOUS
62
7
370
0
100
AcDbMText
10
40
20
63.125
30
0
40
5
41
6.66666666667
71
5
72
1
1
24
7
standard
210
0
220
0
230
1
50
0
73
2
44
1
0
ENDBLK
5
56
330
54
100
AcDbEntity
8
0
100
AcDbBlockEnd
0
BLOCK
5
58
330
57
100
AcDbEntity
8
0
100
AcDbBlockBegin
2
*D3
70
1
10
0
20
0
3
*D3
1

0
LINE
5
84
100
AcDbEntity
8
Dimensioning
6
CONTINUOUS
62
7
370
0
100
AcDbLine
10
140.625
20
90
11
171.25
21
90
0
LINE
5
85
100
AcDbEntity
8
Dimensioning
6
CONTINUOUS
62
7
370
0
100
AcDbLine
10
140.625
20
70
11
171.25
21
70
0
LINE
5
86
100
AcDbEntity
8
Dimensioning
6
CONTINUOUS
62
7
370
0
100
AcDbLine
10
170
20
90
11
170
21
70
0
SOLID
5
87
100
AcDbEntity
8
Dimensioning
6
CONTINUOUS
62
7
370
0
100
AcDbTrace
10
170
20
90
30
0
11
170.416284658
21
87.5
31
0
12
169.583715342
22
87.5
32
0
13
169.583715342
23
87.5
33
0
0
SOLID
5
88
100
AcDbEntity
8
Dimensioning
6
CONTINUOUS
62
7
370
0
100
AcDbTrace
10
170
20
70
30
0
11
169.583715342
21
72.5
31
0
12
170.416284658
22
72.5
32
0
13
170.416284658
23
72.5
33
0
0
MTEXT
5
89
100
AcDbEntity
8
Dimensioning
6
CONTINUOUS
62
7
370
0
100
AcDbMText
10
166.875
20
80
30
0
40
5
41
6.11111111111
71
5
72
1
1
20
7
standard
210
0
220
0
230
1
50
90
73
2
44
1
0
ENDBLK
5
59
330
57
100
AcDbEntity
8
0
100
AcDbBlockEnd
0
BLOCK
5
5B
330
5A
100
AcDbEntity
8
0
100
AcDbBlockBegin
2
*D5
70
1
10
0
20
0
3
*D5
1

0
LINE
5
8A
100
AcDbEntity
8
Dimensioning
6
CONTINUOUS
62
7
370
0
100
AcDbLine
10
117.5
20
90.625
11
117.5
21
103.25
0
LINE
5
8B
100
AcDbEntity
8
Dimensioning
6
CONTINUOUS
62
7
370
0
100
AcDbLine
10
122.5
20
90.625
11
122.5
21
103.25
0
LINE
5
8C
100
AcDbEntity
8
Dimensioning
6
CONTINUOUS
62
7
370
0
100
AcDbLine
10
112.5
20
102
11
127.5
21
102
0
SOLID
5
8D
100
AcDbEntity
8
Dimensioning
6
CONTINUOUS
62
7
370
0
100
AcDbTrace
10
117.5
20
102
30
0
11
115
21
101.583715342
31
0
12
115
22
102.416284658
32
0
13
115
23
102.416284658
33
0
0
SOLID
5
8E
100
AcDbEntity
8
Dimensioning
6
CONTINUOUS
62
7
370
0
100
AcDbTrace
10
122.5
20
102
30
0
11
125
21
102.416284658
31
0
12
125
22
101.583715342
32
0
13
125
23
101.583715342
33
0
0
MTEXT
5
8F
100
AcDbEntity
8
Dimensioning
6
CONTINUOUS
62
7
370
0
100
AcDbMText
10
120
20
105.125
30
0
40
5
41
2.22222222222
71
5
72
1
1
5
7
standard
210
0
220
0
230
1
50
0
73
2
44
1
0
ENDBLK
5
5C
330
5A
100
AcDbEntity
8
0
100
AcDbBlockEnd
0
BLOCK
5
5E
330
5D
100
AcDbEntity
8
0
100
AcDbBlockBegin
2
*D10
70
1
10
0
20
0
3
*D10
1

0
LINE
5
90
100
AcDbEntity
8
Dimensioning
6
CONTINUOUS
62
7
370
0
100
AcDbLine
10
64
20
100.625
11
64
21
105.25
0
LINE
5
91
100
AcDbEntity
8
Dimensioning
6
CONTINUOUS
62
7
370
0
100
AcDbLine
10
70
20
100.625
11
70
21
105.25
0
LINE
5
92
100
AcDbEntity
8
Dimensioning
6
CONTINUOUS
62
7
370
0
100
AcDbLine
10
59
20
104
11
75
21
104
0
SOLID
5
93
100
AcDbEntity
8
Dimensioning
6
CONTINUOUS
62
7
370
0
100
AcDbTrace
10
64
20
104
30
0
11
61.5
21
103.583715342
31
0
12
61.5
22
104.416284658
32
0
13
61.5
23
104.416284658
33
0
0
SOLID
5
94
100
AcDbEntity
8
Dimensioning
6
CONTINUOUS
62
7
370
0
100
AcDbTrace
10
70
20
104
30
0
11
72.5
21
104.416284658
31
0
12
72.5
22
103.583715342
32
0
13
72.5
23
103.583715342
33
0
0
MTEXT
5
95
100
AcDbEntity
8
Dimensioning
6
CONTINUOUS
62
7
370
0
100
AcDbMText
10
67
20
107.125
30
0
40
5
41
2.22222222222
71
5
72
1
1
6
7
standard
210
0
220
0
230
1
50
0
73
2
44
1
0
ENDBLK
5
5F
330
5D
100
AcDbEntity
8
0
100
AcDbBlockEnd
0
BLOCK
5
61
330
60
100
AcDbEntity
8
0
100
AcDbBlockBegin
2
*D2
70
1
10
0
20
0
3
*D2
1

0
LINE
5
96
100
AcDbEntity
8
Dimensioning
6
CONTINUOUS
62
7
370
0
100
AcDbLine
10
150.625
20
100
11
181.25
21
100
0
LINE
5
97
100
AcDbEntity
8
Dimensioning
6
CONTINUOUS
62
7
370
0
100
AcDbLine
10
150.625
20
70
11
181.25
21
70
0
LINE
5
98
100
AcDbEntity
8
Dimensioning
6
CONTINUOUS
62
7
370
0
100
AcDbLine
10
180
20
100
11
180
21
70
0
SOLID
5
99
100
AcDbEntity
8
Dimensioning
6
CONTINUOUS
62
7
370
0
100
AcDbTrace
10
180
20
100
30
0
11
180.416284658
21
97.5
31
0
12
179.583715342
22
97.5
32
0
13
179.583715342
23
97.5
33
0
0
SOLID
5
9A
100
AcDbEntity
8
Dimensioning
6
CONTINUOUS
62
7
370
0
100
AcDbTrace
10
180
20
70
30
0
11
179.583715342
21
72.5
31
0
12
180.416284658
22
72.5
32
0
13
180.416284658
23
72.5
33
0
0
MTEXT
5
9B
100
AcDbEntity
8
Dimensioning
6
CONTINUOUS
62
7
370
0
100
AcDbMText
10
176.875
20
85
30
0
40
5
41
6.11111111111
71
5
72
1
1
30
7
standard
210
0
220
0
230
1
50
90
73
2
44
1
0
ENDBLK
5
62
330
60
100
AcDbEntity
8
0
100
AcDbBlockEnd
0
BLOCK
5
64
330
63
100
AcDbEntity
8
0
100
AcDbBlockBegin
2
*D9
70
1
10
0
20
0
3
*D9
1

0
LINE
5
9C
100
AcDbEntity
8
Dimensioning
6
CONTINUOUS
62
7
370
0
100
AcDbLine
10
31
20
75.625
11
31
21
86.25
0
LINE
5
9D
100
AcDbEntity
8
Dimensioning
6
CONTINUOUS
62
7
370
0
100
AcDbLine
10
49
20
75.625
11
49
21
86.25
0
LINE
5
9E
100
AcDbEntity
8
Dimensioning
6
CONTINUOUS
62
7
370
0
100
AcDbLine
10
31
20
85
11
49
21
85
0
SOLID
5
9F
100
AcDbEntity
8
Dimensioning
6
CONTINUOUS
62
7
370
0
100
AcDbTrace
10
31
20
85
30
0
11
33.5
21
85.4162846578
31
0
12
33.5
22
84.5837153422
32
0
13
33.5
23
84.5837153422
33
0
0
SOLID
5
A0
100
AcDbEntity
8
Dimensioning
6
CONTINUOUS
62
7
370
0
100
AcDbTrace
10
49
20
85
30
0
11
46.5
21
84.5837153422
31
0
12
46.5
22
85.4162846578
32
0
13
46.5
23
85.4162846578
33
0
0
MTEXT
5
A1
100
AcDbEntity
8
Dimensioning
6
CONTINUOUS
62
7
370
0
100
AcDbMText
10
40
20
88.125
30
0
40
5
41
5
71
5
72
1
1
18
7
standard
210
0
220
0
230
1
50
0
73
2
44
1
0
ENDBLK
5
65
330
63
100
AcDbEntity
8
0
100
AcDbBlockEnd
0
ENDSEC
0
SECTION
2
ENTITIES
0
LINE
5
A2
100
AcDbEntity
8
0
6
ByLayer
62
3
370
-1
100
AcDbLine
10
10
20
10
11
70
21
10
0
LINE
5
A3
100
AcDbEntity
8
0
6
ByLayer
62
3
370
-1
100
AcDbLine
10
70
20
10
11
70
21
50
0
LINE
5
A4
100
AcDbEntity
8
0
6
ByLayer
62
3
370
-1
100
AcDbLine
10
70
20
50
11
10
21
50
0
LINE
5
A5
100
AcDbEntity
8
0
6
ByLayer
62
3
370
-1
100
AcDbLine
10
10
20
50
11
10
21
10
0
CIRCLE
5
A6
100
AcDbEntity
8
0
6
ByLayer
62
3
370
-1
100
AcDbCircle
10
40
20
30
40
9
0
CIRCLE
5
A7
100
AcDbEntity
8
0
6
ByLayer
62
3
370
-1
100
AcDbCircle
10
40
20
30
40
12
0
LINE
5
A8
100
AcDbEntity
8
0
6
ByLayer
62
3
370
-1
100
AcDbLine
10
10
20
70
11
70
21
70
0
LINE
5
A9
100
AcDbEntity
8
0
6
ByLayer
62
3
370
-1
100
AcDbLine
10
70
20
70
11
70
21
70
0
LINE
5
AA
100
AcDbEntity
8
0
6
ByLayer
62
3
370
-1
100
AcDbLine
10
70
20
70
11
10
21
70
0
LINE
5
AB
100
AcDbEntity
8
0
6
ByLayer
62
3
370
-1
100
AcDbLine
10
10
20
70
11
10
21
70
0
LINE
5
AC
100
AcDbEntity
8
0
6
ByLayer
62
3
370
-1
100
AcDbLine
10
70
20
70
11
70
21
70
0
LINE
5
AD
100
AcDbEntity
8
0
6
ByLayer
62
3
370
-1
100
AcDbLine
10
70
20
70
11
70
21
100
0
LINE
5
AE
100
AcDbEntity
8
0
6
ByLayer
62
3
370
-1
100
AcDbLine
10
70
20
100
11
70
21
100
0
LINE
5
AF
100
AcDbEntity
8
0
6
ByLayer
62
3
370
-1
100
AcDbLine
10
70
20
100
11
70
21
70
0
LINE
5
B0
100
AcDbEntity
8
0
6
ByLayer
62
3
370
-1
100
AcDbLine
10
70
20
100
11
64
21
100
0
LINE
5
B1
100
AcDbEntity
8
0
6
ByLayer
62
3
370
-1
100
AcDbLine
10
64
20
100
11
64
21
100
0
LINE
5
B2
100
AcDbEntity
8
0
6
ByLayer
62
3
370
-1
100
AcDbLine
10
64
20
100
11
70
21
100
0
LINE
5
B3
100
AcDbEntity
8
0
6
ByLayer
62
3
370
-1
100
AcDbLine
10
70
20
100
11
70
21
100
0
LINE
5
B4
100
AcDbEntity
8
0
6
ByLayer
62
3
370
-1
100
AcDbLine
10
64
20
100
11
64
21
100
0
LINE
5
B5
100
AcDbEntity
8
0
6
ByLayer
62
3
370
-1
100
AcDbLine
10
64
20
100
11
64
21
76
0
LINE
5
B6
100
AcDbEntity
8
0
6
ByLayer
62
3
370
-1
100
AcDbLine
10
64
20
76
11
64
21
76
0
LINE
5
B7
100
AcDbEntity
8
0
6
ByLayer
62
3
370
-1
100
AcDbLine
10
64
20
76
11
64
21
100
0
LINE
5
B8
100
AcDbEntity
8
0
6
ByLayer
62
3
370
-1
100
AcDbLine
10
64
20
76
11
10
21
76
0
LINE
5
B9
100
AcDbEntity
8
0
6
ByLayer
62
3
370
-1
100
AcDbLine
10
10
20
76
11
10
21
76
0
LINE
5
BA
100
AcDbEntity
8
0
6
ByLayer
62
3
370
-1
100
AcDbLine
10
10
20
76
11
64
21
76
0
LINE
5
BB
100
AcDbEntity
8
0
6
ByLayer
62
3
370
-1
100
AcDbLine
10
64
20
76
11
64
21
76
0
LINE
5
BC
100
AcDbEntity
8
0
6
ByLayer
62
3
370
-1
100
AcDbLine
10
10
20
76
11
10
21
76
0
LINE
5
BD
100
AcDbEntity
8
0
6
ByLayer
62
3
370
-1
100
AcDbLine
10
10
20
76
11
10
21
70
0
LINE
5
BE
100
AcDbEntity
8
0
6
ByLayer
62
3
370
-1
100
AcDbLine
10
10
20
70
11
10
21
70
0
LINE
5
BF
100
AcDbEntity
8
0
6
ByLayer
62
3
370
-1
100
AcDbLine
10
10
20
70
11
10
21
76
0
LINE
5
C0
100
AcDbEntity
8
0
6
ByLayer
62
3
370
-1
100
AcDbLine
10
28
20
70
11
28
21
70
0
LINE
5
C1
100
AcDbEntity
8
0
6
ByLayer
62
3
370
-1
100
AcDbLine
10
28
20
70
11
28
21
74
0
LINE
5
C2
100
AcDbEntity
8
0
6
ByLayer
62
3
370
-1
100
AcDbLine
10
28
20
74
11
28
21
74
0
LINE
5
C3
100
AcDbEntity
8
0
6
ByLayer
62
3
370
-1
100
AcDbLine
10
28
20
74
11
28
21
70
0
LINE
5
C4
100
AcDbEntity
8
0
6
ByLayer
62
3
370
-1
100
AcDbLine
10
28
20
74
11
52
21
74
0
LINE
5
C5
100
AcDbEntity
8
0
6
ByLayer
62
3
370
-1
100
AcDbLine
10
52
20
74
11
52
21
74
0
LINE
5
C6
100
AcDbEntity
8
0
6
ByLayer
62
3
370
-1
100
AcDbLine
10
52
20
74
11
28
21
74
0
LINE
5
C7
100
AcDbEntity
8
0
6
ByLayer
62
3
370
-1
100
AcDbLine
10
28
20
74
11
28
21
74
0
LINE
5
C8
100
AcDbEntity
8
0
6
ByLayer
62
3
370
-1
100
AcDbLine
10
52
20
74
11
52
21
74
0
LINE
5
C9
100
AcDbEntity
8
0
6
ByLayer
62
3
370
-1
100
AcDbLine
10
52
20
74
11
52
21
70
0
LINE
5
CA
100
AcDbEntity
8
0
6
ByLayer
62
3
370
-1
100
AcDbLine
10
52
20
70
11
52
21
70
0
LINE
5
CB
100
AcDbEntity
8
0
6
ByLayer
62
3
370
-1
100
AcDbLine
10
52
20
70
11
52
21
74
0
LINE
5
CC
100
AcDbEntity
8
0
6
ByLayer
62
3
370
-1
100
AcDbLine
10
31
20
74
11
31
21
74
0
LINE
5
CD
100
AcDbEntity
8
0
6
ByLayer
62
3
370
-1
100
AcDbLine
10
31
20
74
11
31
21
76
0
LINE
5
CE
100
AcDbEntity
8
0
6
ByLayer
62
3
370
-1
100
AcDbLine
10
31
20
76
11
31
21
76
0
LINE
5
CF
100
AcDbEntity
8
0
6
ByLayer
62
3
370
-1
100
AcDbLine
10
31
20
76
11
31
21
74
0
LINE
5
D0
100
AcDbEntity
8
0
6
ByLayer
62
3
370
-1
100
AcDbLine
10
49
20
74
11
49
21
74
0
LINE
5
D1
100
AcDbEntity
8
0
6
ByLayer
62
3
370
-1
100
AcDbLine
10
49
20
74
11
49
21
76
0
LINE
5
D2
100
AcDbEntity
8
0
6
ByLayer
62
3
370
-1
100
AcDbLine
10
49
20
76
11
49
21
76
0
LINE
5
D3
100
AcDbEntity
8
0
6
ByLayer
62
3
370
-1
100
AcDbLine
10
49
20
76
11
49
21
74
0
LINE
5
D4
100
AcDbEntity
8
0
6
ByLayer
62
3
370
-1
100
AcDbLine
10
70
20
95
11
70
21
95
0
LINE
5
D5
100
AcDbEntity
8
0
6
ByLayer
62
3
370
-1
100
AcDbLine
10
64
20
95
11
64
21
95
0
LINE
5
D6
100
AcDbEntity
8
0
6
ByLayer
62
3
370
-1
100
AcDbLine
10
70
20
85
11
70
21
85
0
LINE
5
D7
100
AcDbEntity
8
0
6
ByLayer
62
3
370
-1
100
AcDbLine
10
64
20
85
11
64
21
85
0
LINE
5
D8
100
AcDbEntity
8
0
6
ByLayer
62
3
370
-1
100
AcDbLine
10
110
20
70
11
150
21
70
0
LINE
5
D9
100
AcDbEntity
8
0
6
ByLayer
62
3
370
-1
100
AcDbLine
10
150
20
70
11
150
21
100
0
LINE
5
DA
100
AcDbEntity
8
0
6
ByLayer
62
3
370
-1
100
AcDbLine
10
150
20
100
11
110
21
100
0
LINE
5
DB
100
AcDbEntity
8
0
6
ByLayer
62
3
370
-1
100
AcDbLine
10
110
20
100
11
110
21
70
0
CIRCLE
5
DC
100
AcDbEntity
8
0
6
ByLayer
62
3
370
-1
100
AcDbCircle
10
120
20
90
40
2.5
0
CIRCLE
5
DD
100
AcDbEntity
8
0
6
ByLayer
62
3
370
-1
100
AcDbCircle
10
140
20
90
40
2.5
0
LINE
5
DE
100
AcDbEntity
8
0
6
ByLayer
62
3
370
-1
100
AcDbLine
10
64
20
92.5
11
70
21
92.5
0
LINE
5
DF
100
AcDbEntity
8
0
6
ByLayer
62
3
370
-1
100
AcDbLine
10
64
20
87.5
11
70
21
87.5
0
DIMENSION
5
E0
100
AcDbEntity
8
Dimensioning
6
ByLayer
62
3
370
-1
100
AcDbDimension
2
*D1
10
90
20
10
30
0
11
86.875
21
30
31
0
70
33
71
5
3
Standard
53
0
210
0
220
0
230
1
100
AcDbAlignedDimension
13
70
23
50
33
0
14
70
24
10
34
0
0
DIMENSION
5
E1
100
AcDbEntity
8
Dimensioning
6
ByLayer
62
3
370
-1
100
AcDbDimension
2
*D2
10
180
20
70
30
0
11
176.875
21
85
31
0
70
33
71
5
3
Standard
53
0
210
0
220
0
230
1
100
AcDbAlignedDimension
13
150
23
100
33
0
14
150
24
70
34
0
0
DIMENSION
5
E2
100
AcDbEntity
8
Dimensioning
6
ByLayer
62
3
370
-1
100
AcDbDimension
2
*D3
10
170
20
70
30
0
11
166.875
21
80
31
0
70
33
71
5
3
Standard
53
0
210
0
220
0
230
1
100
AcDbAlignedDimension
13
140
23
90
33
0
14
140
24
70
34
0
0
DIMENSION
5
E3
100
AcDbEntity
8
Dimensioning
6
ByLayer
62
3
370
-1
100
AcDbDimension
2
*D4
10
140
20
60
30
0
11
130
21
63.125
31
0
70
33
71
5
3
Standard
53
0
210
0
220
0
230
1
100
AcDbAlignedDimension
13
120
23
90
33
0
14
140
24
90
34
0
0
DIMENSION
5
E4
100
AcDbEntity
8
Dimensioning
6
ByLayer
62
3
370
-1
100
AcDbDimension
2
*D5
10
122.5
20
102
30
0
11
120
21
105.125
31
0
70
33
71
5
3
Standard
53
0
210
0
220
0
230
1
100
AcDbAlignedDimension
13
117.5
23
90
33
0
14
122.5
24
90
34
0
0
DIMENSION
5
E5
100
AcDbEntity
8
Dimensioning
6
ByLayer
62
3
370
-1
100
AcDbDimension
2
*D6
10
70
20
0
30
0
11
40
21
3.125
31
0
70
33
71
5
3
Standard
53
0
210
0
220
0
230
1
100
AcDbAlignedDimension
13
10
23
10
33
0
14
70
24
10
34
0
0
DIMENSION
5
E6
100
AcDbEntity
8
Dimensioning
6
ByLayer
62
3
370
-1
100
AcDbDimension
2
*D7
10
0
20
70
30
0
11
-3.125
21
73
31
0
70
33
71
5
3
Standard
53
0
210
0
220
0
230
1
100
AcDbAlignedDimension
13
10
23
76
33
0
14
10
24
70
34
0
0
DIMENSION
5
E7
100
AcDbEntity
8
Dimensioning
6
ByLayer
62
3
370
-1
100
AcDbDimension
2
*D8
10
52
20
60
30
0
11
40
21
63.125
31
0
70
33
71
5
3
Standard
53
0
210
0
220
0
230
1
100
AcDbAlignedDimension
13
28
23
70
33
0
14
52
24
70
34
0
0
DIMENSION
5
E8
100
AcDbEntity
8
Dimensioning
6
ByLayer
62
3
370
-1
100
AcDbDimension
2
*D9
10
49
20
85
30
0
11
40
21
88.125
31
0
70
33
71
5
3
Standard
53
0
210
0
220
0
230
1
100
AcDbAlignedDimension
13
31
23
75
33
0
14
49
24
75
34
0
0
DIMENSION
5
E9
100
AcDbEntity
8
Dimensioning
6
ByLayer
62
3
370
-1
100
AcDbDimension
2
*D10
10
70
20
104
30
0
11
67
21
107.125
31
0
70
33
71
5
3
Standard
53
0
210
0
220
0
230
1
100
AcDbAlignedDimension
13
64
23
100
33
0
14
70
24
100
34
0
0
LINE
5
EA
100
AcDbEntity
8
Crosshairs
6
DASHEDX2
62
256
370
-1
100
AcDbLine
10
40
20
15
11
40
21
46
0
LINE
5
EB
100
AcDbEntity
8
Crosshairs
6
DASHEDX2
62
256
370
-1
100
AcDbLine
10
74
20
30
11
1
21
30
0
LINE
5
EC
100
AcDbEntity
8
Crosshairs
6
DASHEDX2
62
256
370
-1
100
AcDbLine
10
60
20
90
11
74
21
90
0
LINE
5
ED
100
AcDbEntity
8
Crosshairs
6
DASHEDX2
62
256
370
-1
100
AcDbLine
10
40
20
67
11
40
21
80
0
ENDSEC
0
SECTION
2
OBJECTS
0
DICTIONARY
5
C
330
0
100
AcDbDictionary
281
1
3
ACAD_GROUP
350
D
0
DICTIONARY
5
D
330
C
100
AcDbDictionary
281
1
0
ENDSEC
0
EOF
